booka shade eve album

Wav" wave track 06 audio title "Perfect Time" performer "Booka Shade" isrc DES index 01 00:00:00 file "1-07.
Housed in a gatefold sleeve.The only exception is when they are joined by special guests, this time including such luminaries as Fritz Helder (Azari III as well as Groove Armada's Andy Cato, blasting his trombone in a vast echo chamber while Fritz Kalkbrenner heralds the next shade departure singing the.Wav" wave track 04 audio title "Leema" performer "Booka Shade" isrc DES index 01 00:00:00 file "1-05.In their latest work, Walter Merziger and Arno Kammermeier again reveal their talent for transforming the immense sound available from today's electronic production possibilities into pure, ethereal lightness.Special CD release, includes a second bonus disc which features a mix by Booka Shade.Wav Peak level.6 Extraction booka speed.1 X shade Track quality 100.0 Test CRC 50CF3FA6 Copy CRC 50CF3FA6 Track not present in AccurateRip booka database Copy OK shade Track 11 Filename N:torrents-filesBooka Shade - Eve limited edition (2013) CD-flac1-11.Wav Peak level.6 Extraction speed.6 X Track quality 100.0 Test CRC B05CB8FF Copy CRC B05CB8FF Track not present in AccurateRip database Copy OK Track 8 Filename N:torrents-filesBooka Shade - Eve limited edition (2013) CD-flac2-08.Wav" wave track 09 audio title "Crossing Borders" performer "Booka Shade" isrc DES index 01 00:00:00!Wav" wave track 01 audio title "Many Rivers" album performer "Booka Shade" isrc DES index 01 00:00:00 file "1-02.Wav Pre-gap length 0:00:02.00 Peak level.6 Extraction speed.1 X Track quality.9 Test CRC 4912C5EF Copy CRC 4912C5EF Track not present in AccurateRip database Copy OK Track 2 Filename N:torrents-filesBooka Shade - Eve limited edition (2013) CD-flac1-02.Wav" wave track 02 audio title "Love Inc." performer "Booka Shade" isrc DES index 01 00:00:00 file "1-03.Delete leading and trailing silent blocks : No Null shade samples used in CRC calculations album : Yes Used interface : Native Win32 interface for Win NT 2000 Gap handling : Appended to previous track Used output format : User Defined Encoder Selected bitrate : 896 kBit/s.Wav" wave track 03 audio title "Maifeld" performer "Booka Shade" isrc DES index 01 00:00:00 file "2-04. Booka Shade - Only When You Wake.
VA "Booka Shade DJ-Kicks" (2007) / minimal, tech, house.
Wav Peak level.6 Extraction speed.2 X Track quality 100.0 Test CRC 1F82FA48 Copy CRC 1F82FA48 Track not present in AccurateRip database booka serial Copy OK Track 5 Filename workbook N:torrents-filesBooka Shade - Eve limited edition (2013) CD-flac2-05.
Wav Peak level.6 Extraction speed.2 X Track quality 100.0 Test CRC 658C46BF Copy CRC 658C46BF Track not present in AccurateRip database Copy OK Track 8 Filename N:torrents-filesBooka Shade - Eve limited edition (2013) CD-flac1-08.
A few summer days in Manchester finally brought light to the end of the tunnel.
Wav" wave track 10 audio title "Only When You Wake Up" performer "Booka Shade" isrc DES upstream index 01 00:00:00 file "1-11.Wav Pre-gap length 0:00:02.00 Peak level.6 Extraction speed.8 X Track quality.9 Test CRC Copy CRC Track not present in AccurateRip database Copy OK Track 2 Filename N:torrents-filesBooka Shade - Eve limited edition (2013) CD-flac2-02.Wav" wave track 05 audio title "Love Inc" performer "Booka Shade" isrc DES index 01 00:00:00 file "2-06.Track 1 Filename N:torrents-filesBooka Shade - Eve limited edition (2013) CD-flac2-01.Exe Additional command line options : -8 -V -T "artistartist" -T "titletitle" -T "albumalbumtitle" -T "dateyear" -T "tracknumbertracknr" -T "genregenre" -T "performeralbuminterpret" -T "composercomposer" -T "albumartistalbumartist" -T "discnumbercdnumber" -T "totaldiscstotalcds" -T "totaltracksnumtracks" -T "commentcomment" source -o dest TOC of the extracted CD Track Start Length.Wav" wave track 02 audio title "Love Drug" performer "Booka Shade" isrc DES index 01 00:00:00 file "2-03.Fill up upstream missing offset samples with silence : Yes.Read offset correction : 6, overread into Lead-In booka and Lead-Out :.November 2013, 0:28 Booka Shade / Eve CD2 Used drive : asus DRW-24B5ST Adapter: 3 ID: 0 Read mode : Secure Utilize accurate stream : Yes Defeat audio cache : Yes Make use of C2 pointers : No Read offset correction : 6 workbook Overread into.

Booka Shade - More!
Booka Shade - Kalimera.
Wav Peak level.6 Extraction speed.8 X Track quality 100.0 Test CRC EE1CF174 Copy CRC EE1CF174 Track not present in AccurateRip database Copy OK Track 9 Filename N:torrents-filesBooka booka shade eve album Shade - Eve limited edition (2013) CD-flac2-09.